#TITLE:give my love;
#SUBTITLE:;
#ARTIST:Edward;
#TITLETRANSLIT:;
#SUBTITLETRANSLIT:;
#ARTISTTRANSLIT:;
#CREDIT:;
#BANNER:give my love-logo.jpg;
#BACKGROUND:give my love.jpg;
#LYRICSPATH:;
#CDTITLE:Lan.png;
#MUSIC:give my love.mp3;
#OFFSET:0.000;
#SAMPLESTART:100.000;
#SAMPLELENGTH:12.000;
#SELECTABLE:YES;
#BPMS:0.000=89.995,101.000=179.990,103.000=89.995,104.000=179.990,106.000=89.995,107.000=179.990,109.000=89.995,110.000=179.990,112.000=89.995,113.000=179.990,115.000=89.995,116.000=179.990,118.000=89.995,119.000=179.990,121.000=89.995,122.000=179.990,124.000=89.995,156.000=179.990,220.000=89.995,221.000=179.990,223.000=89.995,224.000=179.990,226.000=89.995,227.000=179.990,229.000=89.995,230.000=179.990,232.000=89.995,233.000=179.990,235.000=89.995,236.000=179.990,238.000=89.995,239.000=179.990,241.000=89.995,242.000=179.990,244.000=89.995,245.000=179.990,247.000=89.995,248.000=179.990,250.000=89.995,251.000=179.990,253.000=89.995,254.000=179.990,256.000=89.995,257.000=179.990,259.000=89.995,260.000=179.990,262.000=89.995,263.000=179.990,265.000=89.995,266.000=179.990,268.000=44.998;
#STOPS:;
#BGCHANGES:;
// cache tags:
#FIRSTBEAT:4.000;
#LASTBEAT:286.000;
#SONGFILENAME:Songs/SDO pack 2/give my love/give my love.sm;
#HASMUSIC:1;
#HASBANNER:1;
#MUSICLENGTH:166.956;
// end cache tags

//---------------dance-single - sky----------------
#NOTES:
     dance-single:
     sky:
     Hard:
     8:
     0.626,0.642,1.000,0.018,0.174,539.000,173.000,3.000,0.000,17.000:

0000
0000
0000
0000
,
0101
0010
0100
1000
1010
0100
0010
0001
,
0101
0010
0100
1000
1010
0100
0010
0001
,
0101
0010
0100
1000
1010
0100
0010
0001
,
0101
0010
0100
1000
1010
0100
0010
0001
,
0101
0000
1010
0000
0101
0010
1010
0000
,
0101
0000
1010
0000
0101
0010
1010
0000
,
0101
0000
1010
0000
0101
0010
1010
0000
,
0101
0000
1010
0000
0101
0010
1010
0000
,
0111
0001
0010
0001
1100
1100
0010
0001
,
0110
0001
0010
0001
1100
1100
0010
0001
,
0110
1000
0100
1000
0011
0011
0100
1000
,
0110
1000
0100
1000
0011
0011
0100
1000
,
0110
0001
0010
0001
0011
0011
0100
1000
,
0110
0001
0010
0001
0011
0011
0100
1000
,
0101
1010
0101
1010
,
0110
0001
0010
0001
0011
0011
0100
1000
,
0101
0010
1000
1000
0011
0010
1000
1000
,
0101
0010
1000
1000
0011
0010
1000
1000
,
1010
0100
0001
0001
1100
1000
0001
0001
,
1010
0100
0001
0001
1100
1000
0001
0001
,
0110
0010
1000
1000
0011
0010
1000
1000
,
0110
0010
1000
1000
0011
0010
1000
1000
,
1010
0100
0001
0001
1100
1000
0001
0001
,
1010
0100
0001
0001
1100
1000
0001
0001
,
1000
0100
0010
0001
1000
0000
0100
0000
0010
0000
0001
0000
0001
0010
0100
1000
,
0001
0000
0010
0000
0100
0000
1000
0000
1000
0100
0010
0001
1000
0000
0100
0000
,
0010
0000
0001
0000
0001
0010
0100
1000
0001
0000
0010
0000
0100
0000
1000
0000
,
1000
0100
0010
0001
1000
0000
0100
0000
0010
0000
0001
0000
0001
0010
0100
1000
,
0001
0000
0010
0000
0100
0000
1000
0000
1000
0100
0010
0001
1000
0000
0100
0000
,
0010
0000
0001
0000
0001
0010
0100
1000
0001
0000
0010
0000
0100
0000
1000
0000
,
1100
0001
0010
0001
1100
1100
0001
0000
,
1100
0000
0001
0000
0010
0000
0001
0000
1100
0000
1100
0000
0001
0010
0100
0000
,
0011
0100
1000
0100
0011
0011
1000
0100
,
0011
0000
0100
0000
1000
0000
0100
0000
0011
0000
0011
0000
1000
0100
0010
0000
,
0101
0010
1010
0100
0101
0010
1010
0100
,
0101
0110
1010
0110
0101
0011
1010
0110
,
0101
0010
1010
0100
0101
0010
1010
0100
,
0101
0110
1010
0110
0101
0011
1010
0110
,
0101
0010
0110
0000
1010
0000
0110
0000
,
1011
1100
1011
0110
,
0101
0010
1100
0000
0101
0000
0110
0000
,
1101
0110
1011
0110
,
1010
0100
0011
0000
1010
0000
0110
0000
,
1101
0011
1101
0011
,
1010
0100
0011
0000
1010
0000
0110
0000
,
1101
0011
1101
0011
,
0101
0010
0110
0000
1010
0000
0110
0000
,
1011
1100
1011
0110
,
0101
0010
1100
0000
0101
0000
0110
0000
,
1101
0110
1011
0110
,
1010
0100
0011
0000
1010
0000
0110
0000
,
1101
0011
1101
0011
,
1010
0100
0011
0000
1010
0000
0110
0000
,
1101
0011
1101
0011
,
0001
0010
0100
1000
0001
0000
0010
0000
0100
0000
1000
0000
1000
0100
0010
0001
,
1000
0000
0100
0000
0010
0000
0001
0000
0001
0010
0100
1000
0001
0000
0010
0000
,
0100
0000
1000
0000
1000
0100
0010
0001
1000
0000
0100
0000
0010
0000
0001
0000
,
0001
0010
0100
1000
0001
0000
0010
0000
0100
0000
1000
0000
1000
0100
0010
0001
,
1000
0000
0100
0000
0010
0000
0001
0000
0001
0010
0100
1000
0001
0000
0010
0000
,
0100
0000
1000
0000
1000
0100
0010
0001
1000
0000
0100
0000
0010
0000
0001
0000
,
0001
0010
0100
1000
0001
0000
0010
0000
0100
0000
1000
0000
1000
0100
0010
0001
,
1000
0000
0100
0000
0010
0000
0001
0000
0001
0010
0100
1000
0001
0000
0010
0000
,
0100
0000
1000
0000
1000
0100
0010
0001
1000
0000
0100
0000
0010
0000
0001
0000
,
1000
0100
0010
0001
1000
0000
0100
0000
0010
0000
0001
0000
0001
0010
0100
1000
,
0001
0000
0010
0000
0100
0000
1000
0000
1000
0100
0010
0001
1000
0000
0100
0000
,
0010
0000
0001
0000
0001
0010
0100
1000
0001
0000
0010
0000
0100
0000
1000
0000
,
0002
0000
0000
0000
0000
0003
0000
0000
,
0101
0010
0100
1000
1010
0100
0010
0001
,
0101
0010
0100
1000
1010
0100
0010
0001
,
0011
0010
0100
1000
0100
0010
0001
1100
0100
0010
0001
0010
0100
1000
0100
0011
,
2200
0000
3300
0000
;
